logo
Main Page Sitemap

Most popular

View more work by, themezy, visit our, fAQ page.Responsive works perfectly fifa manager 12 save game and looks great on all screen sizes and mobile devices.Great Documentation with Helpful Screencasts, colors, red.Redistribute this file online or offline unless authorized.Monkey band, club Template, coralix, dark, full..
Read more
Photoshop will complete the selection once the mouse button is released.This says a lot.For motion graphics, the tools can be applied to over more than one frame in a video sequence.This tool assists in creating a focus point on an image and unnecessary or excess..
Read more

Combichrist no redemption 2cd


combichrist no redemption 2cd

(No Redemption2013) 04:03 Combichrist 5 - Clouds of acrobat x pro serial number mac War (No Redemption2013) 04:48 Combichrist - No Redemption 2CD CD2 Limited Edition 2013.
Sent To Destroy.
Gimme Deathrace 03:57 Combichrist 3 - Feed the Fire (No Redemption2013) 02:00 Combichrist - No Redemption 2CD CD1 Limited Edition 2013.
44.34 3:54.40.09 4:31.Deathbed 04:39 Combichrist (No Redemption) Sent To Destroy 04:31 Combichrist (No Redemption) Empty 04:51 Combichrist Sequential One No Redemption2013 02:31 Combichrist No Redemption 02:33 Combichrist No Redemption 03:59 Combichrist Feed The Fire No Redemption2013 01:54 Combichrist - No Redemption 2CD CD2 Limited Edition 2013.Wav Peak level.7 Extraction speed.6 X Track quality 100.0 Test CRC 29C7B1C2 Copy CRC 29C7B1C2 Track not present in game the amazing spider man 2012 AccurateRip database Copy OK Track 6 Filename C:Miloeacno Redemption - The Official DmC:Devil May Cry Combichrist Soundtrack - Disc 106 Buried Alive.Age of Mutation.Wav Peak level.7 Extraction speed.1 X Track quality 100.0 Test CRC B7A62102 Copy CRC B7A62102 Track not present in AccurateRip database Copy OK Track 4 Filename C:Miloeacno Redemption - The Official DmC:Devil May Cry Combichrist Soundtrack - Disc 104 Gimme Deathrace.Utilize accurate stream : Yes, defeat audio cache : Yes.Selected bitrate : 768 kBit/s.Exact Audio Copy.0 beta 3 from.Used interface : Native Win32 interface for Win NT 2000.
Buried Alive 02:26 Combichrist No Redemption 02:26 Combichrist No Redemption 02:26 Combichrist No Redemption 02:33 Combichrist No Redemption.




Wav Peak level.6 Extraction speed.1 X Track quality 100.0 Test CRC 7EF3C9DD Copy CRC 7EF3C9DD Track not present in AccurateRip database Copy OK Track 8 Filename C:Miloeacno Redemption - The Official DmC:Devil May Cry Combichrist Soundtrack - Disc 108 I Know What.03:09 Combichrist - No Redemption 2CD CD1 Limited Edition 2013.Track 1, filename C:Miloeacno Redemption - The Official DmC:Devil May Cry Combichrist Soundtrack - Disc 101 Age Of Mutation.Used output format : User Defined Encoder.Combichrist 8 - I Know What I Am Doing (Planet Treason) (No Redemption2013) 03:51, combichrist 4 - Gimme Deathrace (No Redemption2013) 02:44, combichrist 10 - Falling Apart (No Redemption2013) 02:16, combichrist No Redemption (30) 03:53, combichrist 13 - Pull the Pin (No Redemption2013) 01:51, combichrist.31.46 2:00.What The Fuck Is Wrong redhat linux 6 iso image With You 02:31 Combichrist - No Redemption 2CD CD1 Limited Edition 2013.Wav Peak level.8 Extraction speed.7 X Track quality 100.0 Test CRC 04E4BBE3 Copy CRC 04E4BBE3 Track not present in AccurateRip database Copy OK Track 7 Filename C:Miloeacno Redemption - The Official DmC:Devil May Cry Combichrist Soundtrack - Disc 107 Empty.
Wav Peak level.6 Extraction speed.4 X Track quality 100.0 Test CRC 2730A5EE Copy CRC 2730A5EE Track not present in AccurateRip database Copy OK Track 5 Filename C:Miloeacno Redemption - The Official DmC:Devil May Cry Combichrist Soundtrack - Disc 105 Clouds Of War.
Track not present in AccurateRip database.




Sitemap